#TITLE:Death Moon;
#SUBTITLE:;
#ARTIST:SHK.o2SE;
#TITLETRANSLIT:;
#SUBTITLETRANSLIT:;
#ARTISTTRANSLIT:;
#CREDIT:;
#BANNER:Death Moon.png;
#BACKGROUND:Death Moon-bg.png;
#LYRICSPATH:;
#CDTITLE:NVLM-cdtitle.png;
#MUSIC:Death Moon.mp3;
#OFFSET:-6.023;
#SAMPLESTART:57.606;
#SAMPLELENGTH:12.000;
#SELECTABLE:YES;
#DISPLAYBPM:*;
#BPMS:0.000=160.000,1.500=320.000,6.500=160.000,12.000=320.000,17.000=160.000,21.000=320.000,27.000=160.000,132.000=150.000,134.000=145.000,136.000=140.000,137.000=135.000,138.000=130.000,138.500=125.000,139.000=120.000,141.000=160.000,144.000=640.000,176.000=320.000,184.000=160.000,248.000=320.000,256.000=160.000,308.000=640.014,340.000=320.000,348.000=80.000,364.000=160.000,428.000=80.000,428.500=320.000,430.500=160.000,431.500=640.000,435.500=40.000,435.750=160.000,436.750=80.000,437.250=320.000,452.250=640.000,491.250=40.000,492.000=200.000;
#STOPS:;
#BGCHANGES:;
// cache tags:
#FIRSTBEAT:0.000;
#LASTBEAT:492.000;
#SONGFILENAME:Songs/Music V.I.P ^_^/Death Moon [NVLM]/Death Moon.sm;
#HASMUSIC:1;
#HASBANNER:1;
#MUSICLENGTH:161.802;
// end cache tags

//---------------dance-single - ----------------
#NOTES:
     dance-single:
     :
     Hard:
     14:
     1.000,1.000,0.773,1.000,1.000,1126.000,125.000,174.000,0.000,23.000:  // measure 1
1100
0110
0011
2002
0000
0000
0000
0000
,  // measure 2
0000
0000
0000
3003
0000
1001
0000
1100
,  // measure 3
0000
0110
1000
0011
0000
1001
0110
1010
,  // measure 4
2200
0000
0000
0000
,  // measure 5
3300
0000
1001
0000
0110
0000
1100
0001
,  // measure 6
1010
2112
0000
0110
,  // measure 7
0000
0110
3003
0110
,  // measure 8
0012
0000
0000
0000
1000
0000
0103
0010
0002
0000
0000
0000
0010
0000
0103
0010
,  // measure 9
2000
0000
0000
0000
0100
0000
3001
0100
0020
0000
0000
0000
0001
0000
1030
0100
,  // measure 10
0002
0000
0000
0000
0100
0000
0013
0100
2000
0000
0000
0000
0010
0000
3100
0010
,  // measure 11
0002
1000
0100
0010
0100
1000
1013
0000
,  // measure 12
2100
0000
0000
0000
0001
0000
3010
0001
0200
0000
0000
0000
0001
0000
0310
1000
,  // measure 13
0002
0000
0000
0000
0100
0000
0013
0100
2000
0000
0000
0000
0001
0000
3100
0010
,  // measure 14
0002
0000
0000
0000
1000
0000
0013
0001
0200
0000
0000
0000
0001
0000
1300
0010
,  // measure 15
0002
0000
0000
0000
0010
0000
0103
0010
2000
0000
0000
0000
0001
0000
3110
0000
,  // measure 16
1100
1000
0001
0100
1000
0100
0010
1001
,  // measure 17
0100
0010
1000
0001
0010
0100
1000
0101
,  // measure 18
0010
0001
0100
1000
0100
0010
1000
0110
,  // measure 19
0001
0100
0001
0100
0010
1000
0010
1000
0100
0010
0001
0010
0001
0100
0010
0100
,  // measure 20
1000
0000
0001
0010
0100
0000
1000
0000
0001
0000
0100
0000
0010
0000
1001
0000
,  // measure 21
0100
0000
0010
0001
0010
0000
0100
0000
0001
0000
1000
0000
0100
0000
0011
0000
,  // measure 22
1000
0000
0010
0100
0001
0000
0100
0000
1000
0000
0100
0000
0010
0000
1001
0000
,  // measure 23
1000
0010
1000
0010
0100
0001
0100
0001
0100
0001
0010
0100
0010
0100
0010
0100
,  // measure 24
2001
0010
3200
1000
0302
0010
2003
0100
,  // measure 25
3020
0001
0230
1000
0302
0010
2003
0100
,  // measure 26
3020
1000
0230
0001
0302
0010
2003
0100
,  // measure 27
3010
0100
0010
0100
0001
1000
0001
1000
0100
0010
0001
0010
0100
1000
0100
1000
,  // measure 28
1002
0010
0203
1000
0320
0001
2030
0100
,  // measure 29
3002
1000
0203
0010
0302
0100
2003
0010
,  // measure 30
3200
0001
0320
1000
0032
0100
0023
0001
,  // measure 31
1030
0100
0010
0000
0001
0000
0100
0010
1000
0100
1000
0000
0001
0010
0100
0000
,  // measure 32
1100
1100
0011
0011
1001
1001
0110
0110
,  // measure 33
1100
0011
1100
0011
0101
1010
0101
1010
,  // measure 34
1100
0101
0011
0110
1100
0101
1010
0110
,  // measure 35
1001
1100
0110
0011
0101
0110
1010
2200
,  // measure 36
0000
3300
0000
0000
1011
0000
0000
0000
0000
0000
0000
0000
0000
0000
0000
0000
,  // measure 37
0120
2030
3002
0023
,  // measure 38
0230
2300
3200
0320
,  // measure 39
0032
0203
0320
2030
,  // measure 40
3002
0023
0230
2300
,  // measure 41
3002
0203
2300
3200
,  // measure 42
0320
2030
3002
0023
,  // measure 43
0230
2300
3020
0032
,  // measure 44
0023
2030
3200
0320
,  // measure 45
1031
0000
1110
0000
,  // measure 46
0011
0000
0111
0000
,  // measure 47
1001
1000
0100
0010
0001
0010
0001
0100
0010
0100
0010
1000
0100
1000
0100
0001
,  // measure 48
0010
0100
1000
0001
0010
0100
1000
1000
0100
0010
0001
1000
0100
0010
0001
0100
,  // measure 49
0010
1000
0001
0100
0010
1000
0001
0010
0100
1000
0010
0100
0001
1000
0100
0010
,  // measure 50
0001
0100
1000
0100
0001
0010
0100
1000
0010
0100
0100
0001
1000
0100
0001
0100
,  // measure 51
1000
0100
0001
0100
0010
0001
1000
0001
0010
0001
1000
0001
0100
0010
0100
1000
,  // measure 52
0100
0010
0100
1000
0100
0001
0010
0100
1000
0010
0100
0001
1000
0100
1000
0010
,  // measure 53
0100
1000
0100
0001
0010
0100
1000
1000
0100
0010
0001
1000
0001
0010
0100
1000
,  // measure 54
0010
0100
0001
0100
0001
1000
0100
1000
0100
0010
0001
0010
0001
0100
0010
0100
,  // measure 55
0010
1000
0100
1000
0001
0100
1000
0100
1000
0100
0001
0100
0001
0010
0100
1000
,  // measure 56
0010
0100
0001
0100
0010
0100
0001
0100
1000
0010
0100
0010
1000
0010
0100
0010
,  // measure 57
0001
1000
0010
1000
0001
1000
0100
1000
0010
0100
0001
1000
0100
1000
0100
0010
,  // measure 58
0001
0010
0100
1000
0100
1000
0001
1000
0001
0100
0001
0010
0100
1000
1000
0100
,  // measure 59
0010
0001
0100
1000
0100
0001
0010
0100
1000
0010
1000
0001
0100
0001
0100
0010
,  // measure 60
0001
0010
0001
0010
0100
1000
0001
0100
0001
0010
0100
0001
1000
0100
0010
0001
,  // measure 61
0100
1000
0100
0010
1000
0001
0010
0100
0010
0100
0001
1000
0100
1000
0100
0010
,  // measure 62
0001
0100
0010
1000
0001
0010
0100
1000
0100
1000
0010
0100
0001
0010
0100
1000
,  // measure 63
1100
0000
1110
0000
,  // measure 64
0011
0000
0111
0000
,  // measure 65
2001
0000
3200
0000
0320
0000
0032
0000
0203
0000
2300
0000
3100
0010
0011
0000
,  // measure 66
1002
0000
0203
0000
2300
0000
3020
0000
0230
0000
0302
0000
1003
0100
0110
0000
,  // measure 67
0012
0000
0203
0000
0320
0000
0032
0000
0203
0000
2300
0000
3010
0100
0101
0000
,  // measure 68
1000
0010
1000
0010
0100
0001
0100
0001
0010
0100
1000
0010
0100
0001
0010
0100
,  // measure 69
2100
0000
3020
0000
0230
0000
0302
0000
0023
0000
0230
0000
1300
0001
0101
0000
,  // measure 70
0120
0000
0032
0000
0203
0000
2300
0000
3020
0000
0230
0000
0301
1000
1100
0000
,  // measure 71
0120
0000
2030
0000
3002
0000
0023
0000
0230
0000
2300
0000
3001
0100
0110
0000
,  // measure 72
1000
0010
1000
0100
0010
0001
0010
0001
0100
0010
0100
1000
0100
0001
0010
0100
,  // measure 73
1001
0000
2000
0000
3001
0000
0200
0000
0310
0000
1001
0000
0010
0000
1000
0100
,  // measure 74
1100
0002
0013
0100
1001
0020
1031
0100
,  // measure 75
0120
0000
0031
0000
0100
0000
2000
0000
3010
0000
0101
0000
1000
0000
0001
1000
,  // measure 76
1001
0200
0310
0001
2100
3001
0110
2200
,  // measure 77
0000
3300
0000
0000
1101
0000
0000
0000
0000
0000
0000
0000
0000
0000
0000
0000
,  // measure 78
2001
3200
0320
2030
,  // measure 79
3020
0032
0203
2300
,  // measure 80
3020
0230
0302
2003
,  // measure 81
3200
0320
0032
0203
,  // measure 82
0320
2030
3002
0023
,  // measure 83
0230
2300
3020
0230
,  // measure 84
0302
2003
3200
0302
,  // measure 85
0203
0320
0032
2003
,  // measure 86
3110
0000
1110
0000
,  // measure 87
1001
0000
1011
0000
,  // measure 88
1001
0100
1000
0100
0010
0001
0000
0000
0001
0100
0001
0100
0010
1000
0000
0000
1000
0010
1000
0010
0100
0001
0000
0000
0010
0100
0010
0100
1000
0010
0000
0000
,  // measure 89
0100
0001
0100
1000
0010
0100
0000
0000
0001
0010
0001
0100
0010
1000
0000
0000
1000
0100
0010
0001
0100
0010
0000
0000
0010
1000
0001
0010
0100
1000
0000
0000
,  // measure 90
1001
0100
1000
0000
0010
0100
0001
0000
1000
0100
0010
0000
0001
0010
0010
0000
0100
1000
1000
0000
0001
0100
0010
0000
1000
0100
0010
0000
0001
1000
0100
0000
,  // measure 91
0010
0001
0100
0000
0010
1000
0001
0000
0100
0010
0001
0000
1000
0100
0010
0000
1111
0000
0000
0000
0000
0000
0000
0000
1000
0001
1000
0001
1000
0001
1000
0001
,  // measure 92
0110
0100
0001
1000
0100
0010
1000
0010
0001
0100
0010
1000
0100
1000
0001
0100
,  // measure 93
0001
0010
0100
1000
0100
0010
0001
1000
0010
1000
0100
1000
0001
0100
0001
0010
,  // measure 94
0100
1000
0100
0010
0001
0100
1000
0100
0001
0010
0100
1000
1000
0100
0010
0001
,  // measure 95
1000
0010
1000
0100
1000
0001
0010
0100
0010
0001
1000
0100
0010
0100
1000
0001
,  // measure 96
0100
0001
0010
0100
1000
0010
0100
0001
0010
1000
0010
0001
0100
1000
0100
0001
,  // measure 97
0010
1000
0010
0001
0100
0010
1000
0100
0001
0100
1000
0010
0001
0010
1000
0100
,  // measure 98
0001
0100
1000
0010
0100
0010
0001
0010
0100
0001
1000
0100
0001
0010
0100
1000
,  // measure 99
0010
0100
0001
1000
0100
0010
0001
0010
0100
1000
0010
0100
0001
0010
1001
0000
,  // measure 100
1100
0001
0100
0010
0001
0100
1000
0100
0010
1000
0001
0010
0100
1000
1000
0100
,  // measure 101
0010
0001
0100
1000
0100
0010
1000
0001
0010
0100
0010
0100
1000
0010
1000
0010
,  // measure 102
0100
0001
0100
1000
0100
0001
0010
0100
1000
0010
1000
0010
0100
0001
0100
1000
,  // measure 103
0100
0010
1000
0001
0010
0100
1000
0010
0100
0001
0100
0001
0010
0100
0010
0100
,  // measure 104
1000
0100
1000
0100
0010
0001
0010
0001
0100
0010
0100
1000
0100
0001
0010
0100
,  // measure 105
1000
0100
1000
0001
0100
0001
0010
0001
0010
0100
1000
0100
1000
0010
1000
0001
,  // measure 106
0100
0100
0001
1000
0010
0010
1000
0100
0001
0001
0100
0010
0001
0001
0010
0100
,  // measure 107
1000
1000
0100
0010
1000
1000
0001
0010
0100
1000
0010
0100
0001
1000
0100
0010
,  // measure 108
1001
1110
0000
0000
0000
0110
0000
0111
,  // measure 109
0000
0000
0000
0000
0000
0000
0000
0000
0000
0000
0000
0000
0000
0000
0110
1101
,  // measure 110
0000
0000
0000
1100
0000
0111
0000
0000
0000
0000
0000
0000
0000
2222
0000
0000
,  // measure 111
0000
0000
0000
0000
0000
0330
0000
0000
,  // measure 112
0000
0000
0000
0000
,  // measure 113
0000
0000
0000
0000
0000
0000
0000
0000
0000
0000
0000
0000
0000
0000
0000
3003
,  // measure 114
0000
0200
0000
0000
0000
0310
0000
0000
0000
1000
0000
0000
0000
0002
0000
0000
,  // measure 115
0000
0013
0000
0000
0000
0100
0000
0000
0000
1000
0000
0000
0000
1001
0000
0000
,  // measure 116
0000
0200
0000
0000
0000
0310
0000
0000
0000
0001
0000
0000
0000
1001
0000
0000
,  // measure 117
0000
0100
0000
0000
0000
0020
0000
0000
0000
0031
0000
0000
0000
0100
0000
0000
,  // measure 118
0000
0010
0000
0000
0000
2000
0000
0000
0000
3001
0000
0000
0000
0100
0000
0000
,  // measure 119
0000
1000
0000
0000
0000
0020
0000
0000
0000
0130
0000
0000
0000
0001
0000
0000
,  // measure 120
0000
1000
0000
0000
0000
0100
0000
0000
0000
0002
0000
0000
0000
0023
0000
0000
,  // measure 121
0000
0130
0000
0000
0000
1000
0000
0000
0000
0010
0000
0000
0000
0100
0000
0000
,  // measure 122
0000
1001
0000
0000
0000
2000
0000
0000
0000
3010
0000
0000
0000
0100
0000
0000
,  // measure 123
0000
0001
0000
0000
0000
0110
0000
0000
0000
0100
0000
0000
0000
2222
0000
3333
;

//---------------dance-single - ----------------
#NOTES:
     dance-single:
     :
     Edit:
     21:
     1.000,1.000,1.000,1.000,1.000,1987.000,537.000,352.000,0.000,344.000:  // measure 1
1111
1111
1111
0000
1111
0000
2112
0000
0200
0000
0310
0000
0020
0000
0230
0000
,  // measure 2
0320
0000
0130
0000
0200
0000
3323
0000
0130
0000
1111
2222
3333
0000
1111
2222
,  // measure 3
3333
0000
1111
2222
3333
0000
1111
2222
3333
0000
1111
1111
1111
0000
1111
0000
,  // measure 4
2211
0002
0013
0020
0032
0023
0032
0013
,  // measure 5
3320
0000
0030
0000
1111
2222
3333
0000
1111
2222
3333
0000
1111
2222
3333
0000
,  // measure 6
1111
2222
3333
0000
2112
0000
0220
0000
0000
0000
0330
0000
0110
0000
0220
0000
,  // measure 7
0000
0000
0330
0000
0110
0000
0220
0000
3003
0000
0330
0000
1111
2222
3333
0000
,  // measure 8
1112
0100
1000
0010
1000
0010
1103
0110
0012
1000
0100
0010
1000
0010
1103
0110
,  // measure 9
2001
0100
0001
0010
0100
0001
3011
1100
0120
0001
1000
0100
0001
0100
1031
1100
,  // measure 10
0102
0010
1000
0100
0010
1000
0113
0101
2010
0100
0001
0100
0010
0001
3101
0110
,  // measure 11
1002
0010
1000
0100
0100
1000
0010
1000
0100
0010
1000
0100
2023
0100
3031
0001
,  // measure 12
2100
0010
0001
0100
0001
0100
3110
0011
0201
1000
0010
1000
0001
1000
0311
1010
,  // measure 13
1002
0100
0010
1000
0100
0010
0113
0101
2001
0100
0010
0001
0001
0010
3101
0110
,  // measure 14
0012
1000
0100
0010
1000
0100
1013
0011
0201
1000
0010
1000
0001
0010
1301
0110
,  // measure 15
0012
1000
0100
0100
0010
1000
1103
0110
2001
0010
0100
0001
0001
0100
3110
0001
,  // measure 16
1100
1000
1010
0000
1001
0001
0011
0000
1100
0100
0101
0000
0110
0010
0011
0000
,  // measure 17
1100
1000
1010
0000
0101
0100
1100
0000
0011
0010
0110
0000
1001
0001
0011
0000
,  // measure 18
1100
0100
0101
0000
0110
0010
0011
0000
1100
1000
1010
0000
0101
0001
1001
0000
,  // measure 19
0110
0001
1000
0010
0101
1000
0010
0001
1100
0010
0001
1000
0110
0001
1000
0010
0101
1000
0010
0001
1100
0010
0001
1000
0110
0001
1000
0010
0101
1000
0010
0001
,  // measure 20
1100
0000
0001
0100
0111
0000
1000
0010
1110
0000
0001
0100
1101
0000
1000
0010
,  // measure 21
1011
0000
0100
0010
0111
0000
0010
0100
1110
0000
1000
0010
1011
0000
0001
0100
,  // measure 22
1101
0000
1000
0100
1101
0000
0010
0001
0111
0000
0100
1000
1110
0000
0011
1000
,  // measure 23
1100
0010
0001
0100
1010
0001
0100
0010
1001
0100
0010
0001
1100
0010
0001
0100
1010
0001
0100
0010
1001
0100
0010
0001
1100
0010
0001
0100
1010
0001
0100
0010
,  // measure 24
2001
0100
0010
0001
3201
0010
1000
0010
1302
0100
0010
0100
2013
0001
0100
0100
,  // measure 25
3021
1000
0001
0100
1230
0001
1000
0010
0312
1000
0010
0100
2013
0001
0100
0001
,  // measure 26
3120
1000
1000
0001
1230
0010
0001
0010
1302
0100
0010
0100
2013
0001
0100
0001
,  // measure 27
3011
0100
1000
0010
0101
1000
0010
0100
1001
0010
0100
1000
0011
0100
1000
0010
0101
1000
0010
0100
1001
0010
0100
1000
0011
0100
1000
0010
0101
1000
0010
0100
,  // measure 28
1002
0010
0010
1000
0213
0001
1000
1000
0321
0100
0001
0001
2130
0001
0100
0010
,  // measure 29
3102
0010
1000
0100
1203
0001
0010
1000
0312
0010
0100
0100
2013
0100
0010
0001
,  // measure 30
3201
0010
0001
1000
0321
0100
1000
0100
1032
0010
0100
1000
1023
0100
0001
1000
,  // measure 31
1130
0010
0001
0100
1010
0001
0100
0010
1001
0100
0010
0001
1100
0010
0001
0100
1010
0001
1100
0010
1001
0100
0010
0001
1100
0010
1001
0100
1010
0001
0100
0010
,  // measure 32
1101
1001
0110
0000
0011
1001
0110
0000
1001
0110
0011
0000
0110
0101
1001
0000
,  // measure 33
1100
0110
0011
0000
1100
1001
0011
0000
0101
0110
1010
0000
0101
1100
1010
0000
,  // measure 34
1100
0110
0101
0000
0011
1001
0110
0000
1100
0011
0101
0000
1010
0101
0110
0000
,  // measure 35
1001
0110
1100
0000
0110
1100
0011
0000
0101
1001
0110
0000
1010
0101
2222
0000
,  // measure 36
0000
3333
0000
0000
1111
2222
3333
0000
0000
0000
0000
0000
0000
0000
0000
0000
,  // measure 37
2211
0020
0032
0023
,  // measure 38
0031
0002
0023
0031
,  // measure 39
0002
0023
0032
0013
,  // measure 40
0020
0032
0023
0031
,  // measure 41
0002
0023
0032
0023
,  // measure 42
0031
0002
0023
0032
,  // measure 43
0023
0031
0002
0013
,  // measure 44
0020
0000
0031
0000
0002
0000
0013
3300
,  // measure 45
1111
2222
0000
3333
1111
2222
0000
3333
,  // measure 46
1111
2222
0000
3333
1111
2222
0000
3333
,  // measure 47
1111
0000
0000
0100
0000
0000
0010
0000
1000
0001
0000
0000
0100
0000
0010
1000
0101
0000
0010
0000
0000
0100
1000
0000
0101
0000
0000
0010
0100
0000
1000
0000
0001
0100
0000
0000
0010
0000
1100
0001
0000
0000
0100
0000
0010
1000
0000
0000
,  // measure 48
1001
0000
0100
0010
0000
0000
0100
0000
1010
0001
0000
0000
1100
0000
0001
0010
1000
0000
0001
0000
1010
0100
0000
0000
1100
0000
0001
0010
0000
0000
1000
0000
0110
0001
0000
0000
0010
0000
1000
0100
0011
0000
1000
0000
0100
0010
0001
0000
,  // measure 49
0110
0000
1000
0001
0010
0000
1101
0000
0000
0010
0001
0000
1000
0000
0001
0100
1010
0000
0001
0000
1100
0010
0000
0000
0110
0000
0001
1000
0110
0000
0001
0000
0010
0100
1000
0000
0011
0000
0000
0001
1010
0000
0100
0000
0001
0010
0000
0000
,  // measure 50
1001
0000
0100
1000
0010
0000
0100
0000
1001
0010
0000
0000
1000
0000
0000
0001
0100
0000
1010
0000
0001
0100
0000
0000
1001
0000
0010
1000
0000
0000
0100
0000
0001
0010
1000
0000
1000
0000
0110
0001
0000
0000
1010
0000
0000
0100
0001
0000
,  // measure 51
1100
0000
0010
1000
0000
0000
0001
0000
0010
0100
1000
0000
0010
0000
1100
0001
0000
0000
0100
0000
0010
1000
0000
0000
0101
0000
1000
0010
0000
0000
1000
0000
0110
0001
0000
0000
0010
0000
1100
0001
0000
0000
0100
0000
1001
0010
0000
0000
,  // measure 52
1001
0000
0000
0100
0010
0000
1000
0000
0101
0010
0000
0000
1100
0000
0001
1000
0010
0000
0100
0000
0000
0001
1000
0000
0011
0000
0010
0100
0000
0000
1001
0000
0010
0001
0000
0000
0100
0000
1000
0010
0100
0000
0001
0000
0011
1000
0000
0000
,  // measure 53
1100
0000
0001
0010
1000
0000
0100
0000
0100
0001
1000
0000
0010
0000
0010
0100
0001
0000
1100
0000
0010
0001
0000
0000
0101
0000
1000
0010
0100
0000
0001
0000
0010
1000
0000
0000
0100
0000
1001
0010
0000
0000
1000
0000
0100
0001
0010
0000
,  // measure 54
1001
0000
0000
0100
0001
0000
0010
0000
1000
0001
0010
0000
0100
0000
1000
0100
0001
0000
0010
0000
0000
1000
0110
0000
1001
0000
0000
0010
0001
0000
0100
0000
1000
0001
0010
0000
1000
0000
0000
0100
0001
0000
0110
0000
1000
0001
0000
0000
,  // measure 55
1111
0000
0010
1000
0000
0000
0100
0000
1001
0010
0000
0000
1000
0000
0110
0001
0000
0000
0010
0000
1001
0100
0000
0000
1001
0000
0010
0100
0000
0000
0010
0000
0001
1000
0110
0000
0001
0000
0000
0010
1000
0000
0100
0000
0001
1000
0010
0000
,  // measure 56
0110
0000
1000
0001
0000
0000
1000
0000
0100
0010
0001
0000
0100
0000
0010
1000
0001
0000
1000
0000
0100
0001
0010
0000
0110
0000
1000
0001
0000
0000
0100
0000
0000
0010
1001
0000
1000
0000
0010
0100
0000
0000
1001
0000
0100
0010
0000
0000
,  // measure 57
1001
0000
0000
0100
0000
0000
1010
0000
0001
1000
0100
0000
0001
0000
0000
0010
1000
0000
0100
0000
0001
1000
0010
0000
1001
0000
0010
0100
0000
0000
0010
0000
1000
0001
0010
0000
0100
0000
1000
0010
0001
0000
1000
0000
0000
0100
0001
0000
,  // measure 58
0110
0000
1000
0001
0000
0000
1000
0000
0100
0010
0001
0000
0100
0000
0000
1000
0010
0000
0001
0000
0000
0100
1000
0000
0110
0000
0000
0001
1000
0000
0100
0000
0010
1000
0001
0000
0010
0000
0000
0100
1000
0000
0001
0000
0110
1000
0000
0000
,  // measure 59
1100
0000
0001
0010
0000
0000
0001
0000
1000
0100
0010
0000
1000
0000
0001
0010
0000
0000
0100
0000
1000
0001
0010
0000
1001
0000
0000
0100
0001
0000
0010
0000
0000
1000
0100
0000
0001
0000
0000
0010
1001
0000
0100
0000
0000
0001
0010
0000
,  // measure 60
1001
0000
0000
0100
0001
0000
0010
0000
0001
1000
0100
0000
0001
0000
0110
0001
1000
0000
0010
0000
0000
0100
0000
0000
1001
0000
0010
0100
0000
0000
0010
0000
0101
1000
0000
0000
0001
0000
0010
0100
1000
0000
0010
0000
1000
0001
0100
0000
,  // measure 61
0101
0000
0010
1000
0000
0000
0101
0000
0001
0010
0000
0000
1000
0000
0110
0001
1000
0000
0010
0000
0000
0100
0001
0000
1100
0000
0010
1000
0001
0000
0010
0000
1000
0100
0000
0000
0001
0000
0010
1000
0000
0000
0100
0000
0001
0010
0000
0000
,  // measure 62
1001
0000
0100
0001
0010
0000
0100
0000
1000
0010
0001
0000
1100
0000
0010
0100
0001
0000
0001
0000
1000
0010
0100
0000
1100
0000
0011
1000
0000
0000
0010
0000
1001
0100
0000
0000
0001
0000
0110
1000
0000
0000
0100
0000
1001
0010
0000
0000
,  // measure 63
1111
2222
0000
3333
1111
2222
0000
3333
,  // measure 64
1111
2222
0000
3333
1111
2222
0000
3333
,  // measure 65
2001
0010
3200
0001
0321
1000
1032
0100
0203
0010
2310
0001
3200
0010
1320
0001
,  // measure 66
1032
0000
1203
0010
2300
0010
3021
0001
0230
1000
0302
0010
2003
0100
3200
0010
,  // measure 67
0312
1000
0203
1000
0320
0001
1032
0100
0213
1000
2301
0010
3020
0100
0231
1000
,  // measure 68
2311
0011
0110
0110
0011
0011
0110
0110
0011
0011
0110
0110
0011
0011
3110
0110
,  // measure 69
2100
0001
3020
0100
0230
1000
1302
0010
0023
0100
1230
0001
2300
0001
3102
0000
,  // measure 70
0123
1000
0032
0100
0203
0010
2301
0001
3020
0100
0230
1001
0302
1000
2103
0010
,  // measure 71
3120
0001
2130
0100
3002
0010
1023
0100
0230
0001
2310
0100
3002
0100
2013
0001
,  // measure 72
3112
0110
1100
1100
0110
0110
1100
1100
0110
0110
1100
1100
0110
0110
1103
1100
,  // measure 73
1001
0010
2000
0100
3001
0010
0200
1000
0310
0001
1001
0100
0110
0001
1100
0110
,  // measure 74
2200
0001
3302
0010
0013
0100
1100
0010
1001
0100
0021
0000
2032
0100
3103
0001
,  // measure 75
0120
1000
0031
0100
0110
0001
2100
0001
3010
0100
0101
1000
1010
0101
0011
1100
,  // measure 76
1001
0010
2200
0000
3310
0001
0001
0010
2100
0100
3001
0010
0110
1000
2222
0000
,  // measure 77
0000
0000
3333
0000
1111
2222
3333
0000
0000
0000
0000
0000
0000
0000
0000
0000
,  // measure 78
1122
2000
3200
2300
,  // measure 79
3200
2300
3100
0200
,  // measure 80
2300
3200
1300
2000
,  // measure 81
3100
0200
2300
3200
,  // measure 82
1300
2000
3200
2300
,  // measure 83
3100
0200
2300
3200
,  // measure 84
1300
2000
3200
2300
,  // measure 85
3100
0200
1300
1033
,  // measure 86
1111
2222
0000
3333
1111
2222
0000
3333
,  // measure 87
1111
2222
0000
3333
1111
2222
0000
3333
,  // measure 88
2001
0010
0100
0001
0010
0100
0001
0010
0100
0001
0010
0100
0001
0010
0100
0001
0010
0100
0001
0010
0100
0001
0010
0100
0001
0010
0100
0001
0010
0100
0010
0100
3012
0100
1000
0010
0100
0010
1000
0100
0010
1000
0100
0010
1000
0100
0010
1000
0100
0010
1000
0100
0010
1000
0100
0010
1000
0100
0010
1000
0100
0010
0100
1000
,  // measure 89
0123
0001
0100
1000
0001
0100
1000
0001
0100
1000
0001
0100
1000
0001
0100
1000
0001
0100
1000
0001
0100
1000
0001
0100
1000
0001
0100
1000
0001
0100
1000
0001
1230
0010
0001
0010
1000
0001
0010
1000
0001
0010
0001
1000
1000
0010
1000
0001
0010
1000
0001
0010
0001
0010
0001
1000
0010
1000
0001
0010
1000
0001
0010
1000
,  // measure 90
2301
0100
0010
0001
0100
0010
0001
0100
0010
0001
0100
0010
0001
0100
0010
0001
0100
0010
0001
0100
0010
0001
0100
0010
0001
0100
0010
0001
0100
0010
0001
0100
3120
1000
0001
0100
1000
0001
0100
1000
0001
0100
1000
0001
0100
1000
0001
0100
1000
0001
0100
1000
0001
0100
1000
0001
0100
1000
0001
0100
1000
0001
0100
1000
,  // measure 91
0231
0010
0001
0010
0001
1000
0010
1000
0001
0010
1000
0001
0010
1000
0010
0001
1000
0010
0001
0010
1000
0010
0001
0010
1300
0100
0010
0001
0100
0010
1000
0001
1111
0000
1111
0000
2222
0000
0000
0000
3333
0000
0000
0000
0000
0000
0000
0000
1100
0011
1100
0011
1100
0011
1100
0011
1100
0011
1100
0011
1100
0011
1100
0011
,  // measure 92
1100
0000
0000
0101
1000
0000
0010
0000
1000
0100
0001
0000
1000
0000
0110
0001
0000
0000
0100
0000
1000
0010
0000
0000
1001
0000
0010
0100
0001
0000
1100
0000
0000
0010
0001
0000
0100
0000
1000
0001
0010
0000
0101
0000
0000
1000
0001
0000
,  // measure 93
0110
0000
0000
0001
1000
0000
0100
0000
0010
1000
0001
0000
0010
0000
0000
0100
1000
0000
0101
0000
0000
0010
1000
0000
0110
0000
0001
1000
0000
0000
0100
0000
0010
0001
1000
0000
0001
0000
0100
0010
1000
0000
0100
0000
0001
1000
0110
0000
,  // measure 94
1001
0000
0000
0100
1001
0000
0010
0000
1000
0001
0000
0000
0100
0000
0010
1000
0001
0000
0100
0000
0001
0010
0000
0000
1001
0000
0100
0010
0001
0000
0100
0000
1000
0001
0010
0000
1000
0000
0001
0100
0000
0000
1011
0000
1000
0001
0000
0000
,  // measure 95
0110
0000
0001
1000
0000
0000
0001
0000
0010
0100
1001
0000
0010
0000
0100
0001
1000
0000
0001
0000
0100
0010
0001
0000
1100
0000
0000
0001
0010
0000
0100
0000
1000
0010
0001
0000
1000
0000
0011
0100
0000
0000
1011
0000
1000
0001
0010
0000
,  // measure 96
1100
0000
0000
0010
0101
0000
0001
0000
1000
0010
0000
0000
0100
0000
0001
1000
0110
0000
0001
0000
0000
0100
1000
0000
0110
0000
0000
0001
1000
0000
1000
0000
0100
0010
0001
0000
0100
0000
0000
1000
0010
0000
1001
0000
0000
0100
0000
0000
,  // measure 97
0011
0000
1000
0001
0100
0000
0010
0000
1000
0100
0001
0000
0001
0000
0010
1000
0000
0000
1100
0000
0001
0010
0000
0000
1001
0000
0100
1000
0010
0000
0100
0000
1001
0010
0000
0000
1000
0000
0100
0001
0010
0000
0101
0000
1000
0010
0000
0000
,  // measure 98
1001
0000
0000
0100
0011
0000
0010
0000
1000
0001
0100
0000
0010
0000
1000
0100
0001
0000
1100
0000
0001
0010
0000
0000
0110
0000
1000
0001
0100
0000
1000
0000
0010
0100
0001
0000
0010
0000
0001
1000
0110
0000
1001
0000
0000
0010
1001
0000
,  // measure 99
0110
0000
1000
0001
0010
0000
0100
0000
1000
0010
0001
0000
1000
0000
0000
0100
0010
0000
0101
0000
1000
0010
0000
0000
1100
0000
0001
0010
0000
0000
1000
0000
0110
0001
0000
0000
0010
0000
1001
0100
0000
0000
1101
0000
0010
1000
0001
0000
,  // measure 100
0110
0000
0000
0001
1000
0000
0010
0000
0001
0100
1000
0000
0001
0000
0010
1000
0000
0000
0100
0000
1001
0010
0000
0000
1001
0000
0100
1000
0010
0000
0010
0000
1001
0100
0000
0000
1000
0000
0110
0001
1000
0000
0110
0000
0001
1000
0000
0000
,  // measure 101
1001
0000
0010
0100
0000
0000
0010
0000
1000
0001
0100
0000
1000
0000
0001
0100
1010
0000
0010
0000
1000
0001
0110
0000
1001
0000
0000
0010
0001
0000
0100
0000
1010
0001
0000
0000
0100
0000
1001
0010
0100
0000
1001
0000
0010
0100
0000
0000
,  // measure 102
1001
0000
0010
1000
0100
0000
0100
0000
0001
0010
1000
0000
0001
0000
0100
0001
1000
0000
0010
0000
0001
0100
0010
0000
1001
0000
0000
0100
0010
0000
0010
0000
0001
1000
0100
0000
1001
0000
0010
0100
0000
0000
1001
0000
0000
0010
1000
0000
,  // measure 103
0110
0000
0001
1000
0010
0000
0100
0000
0001
0010
1000
0000
0001
0000
0000
0100
0010
0000
1000
0000
0001
0100
1000
0000
0110
0000
1000
0001
0010
0000
1000
0000
0100
0010
0001
0000
0100
0000
1010
0001
0100
0000
1001
0000
0100
0010
0000
0000
,  // measure 104
1100
0000
0001
0100
0010
0000
1001
0000
1000
0010
0000
0000
0100
0000
0010
0001
1000
0000
0010
0000
1100
0001
0000
0000
1001
0000
0010
0100
0001
0000
0010
0000
0001
1000
0100
0000
0001
0000
1000
0010
0000
0000
1100
0000
0001
1000
0000
0000
,  // measure 105
0110
0000
0000
0001
0010
0000
1001
0000
1000
0100
0001
0000
0010
0000
0000
1000
0100
0000
0001
0000
1000
0010
0001
0000
0110
0000
0000
1000
0101
0000
0001
0000
0010
0100
1000
0000
0010
0000
1000
0001
0100
0000
1001
0000
0000
0010
0000
0000
,  // measure 106
1100
0000
0010
0001
1000
0000
0100
0000
1000
0010
0000
0000
0001
0000
1001
0100
0010
0000
1000
0000
0001
0100
0000
0000
0110
0000
1000
0001
0100
0000
1000
0000
0001
0010
1000
0000
0100
0000
0010
1000
0001
0000
1001
0000
0100
0010
0000
0000
,  // measure 107
0101
0000
0010
1000
0000
0000
0100
0000
1001
0010
1000
0000
0001
0000
0100
1000
0001
0000
1010
0000
0001
0100
0000
0000
1100
0000
0010
0001
1100
0000
0010
0000
0001
0100
0000
0000
1000
0000
0010
0001
1000
0000
0101
0000
0010
1000
0000
0000
,  // measure 108
1111
1111
1111
0000
2222
0000
0000
0000
3333
0000
1111
2222
3333
0000
1111
0000
,  // measure 109
0000
0000
2222
0000
0000
0000
0000
0000
0000
0000
3333
0000
0000
0000
1111
1111
,  // measure 110
2222
0000
3333
0000
0000
0000
1111
1111
0000
0000
1111
0000
0000
0000
2222
0000
0000
0000
0000
0000
3333
0000
0000
0000
0000
0000
2222
0000
0000
0000
0000
0000
,  // measure 111
0000
0000
0000
0000
,  // measure 112
0330
0000
0000
0000
0000
0200
0000
0320
0000
0230
0000
0320
0000
0230
0000
0320
,  // measure 113
0000
0230
0000
0310
0000
0020
0000
0230
0000
0320
0000
0130
0000
0100
0000
0020
,  // measure 114
0000
0230
0000
0000
0000
0320
0000
0000
0000
0230
0000
0000
0000
0310
0000
0000
,  // measure 115
0000
0020
0000
0000
0000
0130
0000
0000
0000
0200
0000
0000
0000
0320
0000
0000
,  // measure 116
0000
0230
0000
0000
0000
0310
0000
0000
0000
0020
0000
0000
0000
0230
0000
0000
,  // measure 117
0000
0320
0000
0000
0000
0230
0000
0000
0000
0320
0000
0000
0000
0230
0000
0000
,  // measure 118
0000
0310
0000
0000
0000
0020
0000
0000
0000
0130
0000
0000
0000
0200
0000
0000
,  // measure 119
0000
0310
0000
0000
0000
0020
0000
0000
0000
0230
0000
0000
0000
0320
0000
0000
,  // measure 120
0000
0130
0000
0000
0000
0200
0000
0000
0000
0310
0000
0000
0000
0020
0000
0000
,  // measure 121
0000
0230
0000
0000
0000
0310
0000
0000
0000
0020
0000
0000
0000
0130
0000
0000
,  // measure 122
0000
0200
0000
0000
0000
0310
0000
0000
0000
0020
0000
0000
0000
0230
0000
0000
,  // measure 123
0000
0000
0310
0000
0000
0000
0000
0000
0000
0000
0020
0000
0000
0000
0000
0000
0000
0000
3133
0000
0000
0000
0000
0000
0000
0000
1111
2222
0000
0000
0000
0000
,  // measure 124
3333
0000
0000
0000
;

//---------------dance-single - ----------------
#NOTES:
     dance-single:
     :
     Challenge:
     16:
     1.000,1.000,1.000,1.000,1.000,1301.000,496.000,408.000,0.000,325.000:  // measure 1
1111
1111
0111
1000
1111
0000
2222
0000
0000
0000
0000
0000
0000
0000
0000
0000
,  // measure 2
0000
0000
0000
3333
0000
2222
3333
2222
,  // measure 3
3333
0000
1222
0000
1333
0000
2222
0000
3333
0000
1111
1111
1111
0000
1111
0000
,  // measure 4
2222
0000
0000
0000
,  // measure 5
3333
0000
2222
3333
2222
3333
2221
3331
,  // measure 6
2222
3333
2112
0220
0330
0000
0110
0220
,  // measure 7
0330
0000
0000
0000
0110
0000
0220
0000
3333
0000
0000
0000
1111
2222
3333
0000
,  // measure 8
0012
0000
0100
0000
1000
0000
1103
0110
0012
0000
1000
0000
0010
0000
1103
0110
,  // measure 9
2001
0000
0010
0000
0100
0000
3101
1100
1020
0000
0100
0000
0001
0000
1130
0110
,  // measure 10
0012
0000
1000
0000
0100
0000
0113
0101
2001
0000
0100
0000
0010
0000
3110
1010
,  // measure 11
0102
0000
1000
0010
0100
0000
0010
1000
0100
0000
1000
0100
1013
0001
0010
0000
,  // measure 12
2101
0000
0010
0000
0001
0000
3110
0011
0201
0000
1000
0000
0001
0000
0311
1010
,  // measure 13
1002
0000
0010
0000
0100
0000
0113
0101
2001
0000
0100
0000
0001
0000
3110
1010
,  // measure 14
0102
0000
0010
0000
1000
0000
0113
0011
1200
0000
0010
0000
0001
0000
1310
0110
,  // measure 15
0102
0000
1000
0000
0010
0000
1103
0110
2001
0000
0100
0010
0001
0000
3110
0011
,  // measure 16
2100
0011
0001
0110
0100
0011
0001
3101
,  // measure 17
1200
0011
1000
1001
0010
0011
1000
1301
,  // measure 18
0120
1001
1100
0001
0101
1000
1001
1130
,  // measure 19
2001
0100
3021
0100
2031
0100
3021
0100
2031
0100
3021
0100
2031
0100
3021
0100
,  // measure 20
1031
0000
0001
0010
0110
0000
1000
0100
0001
0000
0100
1000
0110
0000
1001
0000
,  // measure 21
0100
0000
0010
0001
0011
0000
0100
1000
0001
0000
1000
0010
1100
0001
0011
0100
,  // measure 22
1000
0000
0010
0100
0101
0000
0100
0010
1000
0000
0100
0001
0110
0000
1001
1000
,  // measure 23
0012
0100
2013
0100
3012
0100
2013
0100
3012
0100
2013
0100
3012
0100
2013
0100
,  // measure 24
3102
0000
0010
1000
1203
0000
1000
0010
1302
0000
0010
0100
2013
0000
0100
0001
,  // measure 25
3120
0000
0001
1000
1230
0000
1000
0010
0312
0000
0010
0100
2103
0000
0001
0100
,  // measure 26
3120
0000
1000
0001
1230
0000
0001
0010
1302
0000
0010
1000
1203
0000
0301
0010
,  // measure 27
1020
0001
1230
0001
1320
0001
1230
0001
1320
0001
1230
0001
1320
0001
1230
0001
,  // measure 28
1302
0000
0010
1000
0213
0000
1000
0001
1320
0000
0001
0100
2031
0000
0100
0010
,  // measure 29
3102
0000
1000
0010
1203
0000
0010
1000
1302
0000
0100
0010
2103
0000
0010
0001
,  // measure 30
3210
0000
0001
1000
1320
0000
1000
0100
1032
0000
0100
1000
1023
0000
0001
0100
,  // measure 31
1231
0010
1302
0010
1203
0010
1302
0010
1203
0010
1302
0010
1203
0010
1302
0010
,  // measure 32
1103
1100
2200
0000
3311
0011
0021
0000
1031
1001
2002
0000
3113
0110
0110
0000
,  // measure 33
1100
0110
0022
0000
1133
0110
0011
0000
0101
0110
1010
0000
0101
0110
1010
0000
,  // measure 34
1100
0110
0101
0000
0011
1100
0110
0000
1100
0011
0101
0000
1010
0101
0110
0000
,  // measure 35
1001
0110
1100
0000
0110
1001
0011
0000
0101
1100
0110
0000
1010
0101
2222
0000
,  // measure 36
0000
3333
0000
0000
2222
0000
3333
0000
0000
0000
0000
0000
0000
0000
0000
0000
,  // measure 37
2220
3002
2003
3002
,  // measure 38
2003
3002
2003
3002
,  // measure 39
2003
3002
2003
3002
,  // measure 40
2003
3002
2003
3002
,  // measure 41
2003
3002
2003
3002
,  // measure 42
2003
3002
2003
3002
,  // measure 43
2003
3002
2003
3002
,  // measure 44
2003
3002
2003
3331
,  // measure 45
1111
2222
3333
0000
1111
2222
3333
0000
,  // measure 46
1111
2222
3333
0000
1111
2222
3333
0000
,  // measure 47
1100
0010
0001
0100
1010
0001
0001
0010
1100
0001
0010
0100
1100
0010
1001
0100
,  // measure 48
1010
0001
0001
0010
1100
0001
0010
0100
1100
0010
0001
0100
1010
0001
1100
0010
,  // measure 49
0011
0100
1000
0010
0101
1000
1000
0100
0011
1000
0100
0010
0011
0100
1001
0010
,  // measure 50
0101
1000
1000
0100
0011
1000
0100
0010
0011
0100
1000
0010
0101
1000
0011
0100
,  // measure 51
0011
1000
0100
0001
1010
0100
0001
1000
0110
0001
1000
0100
0011
0001
0110
1000
,  // measure 52
0011
0100
1000
0001
0110
1000
1000
0100
0011
0100
1000
0001
0110
0001
1010
0100
,  // measure 53
0110
0001
0010
1000
0101
0010
0001
0010
0110
1000
0010
0001
1100
0010
1100
0001
,  // measure 54
0110
1000
0001
0010
1100
0010
0001
0001
0110
1000
0001
0010
0101
1000
0110
0100
,  // measure 55
1001
0010
0001
0100
1010
0010
0001
0100
1010
0001
0100
0010
1001
0001
1010
0100
,  // measure 56
1001
0100
0010
0001
1100
0010
0100
0001
1010
0100
0001
0100
1010
0001
1100
1000
,  // measure 57
1010
0100
0001
1000
0110
0001
1000
0100
0011
1000
0100
0001
0011
0100
1010
0001
,  // measure 58
0110
0001
1000
1000
0011
0100
1000
0100
0110
0001
1000
0100
1010
0001
0010
1000
,  // measure 59
0101
0010
0001
0010
0110
1000
1000
0010
0101
1000
0010
1000
0101
0010
1100
1000
,  // measure 60
0110
0001
1000
0010
1100
1000
0001
0010
1100
0001
0010
1000
0110
0001
1100
0100
,  // measure 61
0011
0010
0100
1000
0011
0100
1000
1000
0101
0010
1000
0100
0011
1000
0101
0010
,  // measure 62
0101
1000
1000
0001
0110
0001
1000
0100
0011
0100
1000
1000
0011
0100
1001
0010
,  // measure 63
1111
2222
3333
0000
1111
2222
3333
0000
,  // measure 64
1111
2222
3333
0000
1111
2222
3333
0000
,  // measure 65
2111
0000
3200
0001
1320
0000
0032
0100
1203
0000
2300
0010
3101
0010
0011
0100
,  // measure 66
1002
0000
0203
0010
2301
0000
3020
0001
1230
0000
0302
0010
1013
0100
0110
1000
,  // measure 67
0012
0000
0203
1000
1320
0000
0032
1000
0213
0000
2300
0001
3011
0100
0101
0010
,  // measure 68
2001
0010
3201
0010
2301
0010
3201
0010
2301
0010
3201
0010
2301
0010
3201
0010
,  // measure 69
2301
0000
3020
0001
1230
0000
0302
1000
1023
0000
0230
1000
1310
0001
0101
1000
,  // measure 70
0120
0000
0032
1000
1203
0000
2300
0001
3021
0000
0230
1000
1301
0010
1100
0001
,  // measure 71
0120
0000
2030
0100
3102
0000
0023
1000
1230
0000
2300
0010
3011
0100
0110
0010
,  // measure 72
1002
0100
1023
0100
1032
0100
1023
0100
1032
0100
1023
0100
1032
0100
1023
0100
,  // measure 73
1031
0000
2100
0010
3101
0000
0210
0001
1310
0000
1001
0100
0110
0000
1001
0110
,  // measure 74
1100
0000
0102
1000
1013
0000
0110
0000
1101
0001
0220
0000
1331
0000
0101
1000
,  // measure 75
0220
0000
0331
1000
1100
0010
2002
0100
3013
0000
0101
0010
1210
0001
0311
1000
,  // measure 76
1001
0010
2200
0001
3310
0000
0101
0010
2100
0010
3001
0000
0110
0001
2222
0000
,  // measure 77
0000
3333
0000
0000
2222
0000
3333
0000
0000
0000
0000
0000
0000
0000
0000
0000
,  // measure 78
2220
0032
0023
0032
,  // measure 79
0023
0032
0023
0032
,  // measure 80
0023
0032
0023
0032
,  // measure 81
0023
0032
0023
0032
,  // measure 82
0023
0032
0023
0032
,  // measure 83
0023
0032
0023
0032
,  // measure 84
0023
0032
0023
0032
,  // measure 85
0023
0032
0023
3331
,  // measure 86
1111
2222
3333
0000
1111
2222
3333
0000
,  // measure 87
1111
2222
3333
0000
1111
2222
3333
0000
,  // measure 88
2100
0010
0001
0001
0010
0100
0001
0100
0010
0001
0010
0100
0001
0100
0010
0001
3102
0010
1000
0100
0010
0100
1000
0010
0100
1000
0010
0100
1000
0010
0100
1000
,  // measure 89
0123
0001
0100
1000
0001
0100
1000
0001
0001
0100
0001
1000
0100
0001
1000
0100
0231
0010
1000
0010
0001
0001
0010
1000
0010
1000
0001
0010
1000
0010
0001
1000
,  // measure 90
0312
0100
1000
1000
0100
0010
0010
0100
1000
0010
0100
0010
0100
1000
0100
0010
2013
0100
0001
0010
0100
0100
0010
0001
0100
0010
0100
0001
0001
0010
0100
0001
,  // measure 91
3120
1000
0001
0100
1000
0001
0100
1000
0001
0100
1000
0001
0130
1000
0001
0100
2222
0000
0000
0000
3333
0000
0000
0000
1100
0011
1100
0011
1100
0011
1100
0011
,  // measure 92
1111
1000
0001
0010
1100
0010
0001
0001
0110
1000
0010
1000
0101
0010
0101
1000
,  // measure 93
0110
1000
0001
0010
0110
0001
1000
0010
1100
0001
0010
1000
0101
0010
0101
1000
,  // measure 94
0110
0100
0001
0100
1010
0001
0100
0001
1010
0100
0001
1000
0110
0001
1010
0100
,  // measure 95
0011
0001
0100
1000
0011
0100
0001
1000
0110
1000
0001
0100
0011
0100
1010
0010
,  // measure 96
0101
1000
0100
0010
0011
1000
0010
0100
1001
0100
0010
1000
0101
1000
0011
0100
,  // measure 97
1001
0010
0100
1000
0011
0100
1000
0010
0101
1000
0010
0100
1001
0010
0101
0001
,  // measure 98
1010
0100
0010
0001
1100
0010
0100
0100
1001
0010
0100
0010
1001
0100
1010
0100
,  // measure 99
1001
0010
0100
0001
1010
0100
0001
0010
1100
0001
0010
0100
1001
0100
1010
0001
,  // measure 100
0101
1000
0001
0010
0110
0001
1000
0010
1100
0001
0001
0010
0101
1000
0110
0001
,  // measure 101
1100
0010
0001
1000
0110
0001
0001
0010
1100
0001
0010
1000
0101
0010
1100
0100
,  // measure 102
0011
0010
0100
1000
0011
0100
0010
1000
0101
0010
1000
0100
0011
1000
0101
0010
,  // measure 103
0011
0100
1000
0010
0101
0010
1000
0100
0011
0010
1000
0010
0101
1000
0011
0100
,  // measure 104
1100
0001
0010
0100
1100
0010
0001
0100
1010
0100
0001
0001
1010
0100
1001
0100
,  // measure 105
1010
0010
0001
0010
1100
0001
0100
0010
1010
0100
0001
0010
1100
0001
1010
0100
,  // measure 106
0101
0010
1000
0100
0011
0010
0100
1000
0011
0100
0010
1000
0101
0010
1001
0100
,  // measure 107
0011
1000
0100
0010
0011
0100
1000
0010
0101
1000
0010
0100
1001
0010
0101
1000
,  // measure 108
1111
1111
1111
0000
2222
0000
3333
0000
0000
0000
1111
2222
3333
0000
1111
0000
,  // measure 109
0000
0000
2222
0000
0000
0000
0000
0000
0000
0000
3333
0000
0000
0000
1111
1111
,  // measure 110
2222
0000
3333
0000
0000
0000
1111
2222
3333
0000
1111
0000
0000
0000
2222
0000
0000
0000
0000
0000
3333
0000
0000
0000
0000
0000
2222
0000
0000
0000
0000
0000
,  // measure 111
0000
0000
0000
0000
,  // measure 112
0000
0000
0000
0000
0000
0000
0000
0000
0000
0000
0000
0000
0000
0000
0000
0330
,  // measure 113
0000
0000
0000
0000
0000
0000
0000
0100
0000
0010
0000
0100
0000
0010
0000
0200
,  // measure 114
0000
0320
0000
0000
0000
0230
0000
0000
0000
0320
0000
0000
0000
0230
0000
0000
,  // measure 115
0000
0320
0000
0000
0000
0230
0000
0000
0000
0320
0000
0000
0000
0230
0000
0000
,  // measure 116
0000
0320
0000
0000
0000
0230
0000
0000
0000
0320
0000
0000
0000
0230
0000
0000
,  // measure 117
0000
0320
0000
0000
0000
0230
0000
0000
0000
0320
0000
0000
0000
0230
0000
0000
,  // measure 118
0000
0320
0000
0000
0000
0230
0000
0000
0000
0320
0000
0000
0000
0230
0000
0000
,  // measure 119
0000
0320
0000
0000
0000
0230
0000
0000
0000
0320
0000
0000
0000
0230
0000
0000
,  // measure 120
0000
0320
0000
0000
0000
0230
0000
0000
0000
0320
0000
0000
0000
0230
0000
0000
,  // measure 121
0000
0320
0000
0000
0000
0230
0000
0000
0000
0320
0000
0000
0000
0230
0000
0000
,  // measure 122
0000
0320
0000
0000
0000
0230
0000
0000
0000
0320
0000
0000
0000
0230
0000
0000
,  // measure 123
0000
0000
0320
0000
0000
0000
0000
0000
0000
0000
0230
0000
0000
0000
0000
0000
0000
0000
3313
0000
0000
0000
0000
0000
0000
0000
1111
2222
0000
0000
0000
0000
,  // measure 124
3333
0000
0000
0000
;

//---------------dance-single - ----------------
#NOTES:
     dance-single:
     :
     Medium:
     13:
     1.000,1.000,0.785,0.717,1.000,1064.000,127.000,116.000,0.000,19.000:  // measure 1
1100
0110
0011
2002
0000
0000
0000
0000
,  // measure 2
0000
0000
0000
3003
0000
1001
0000
0011
,  // measure 3
0000
0110
0000
1100
0000
1100
0110
0011
,  // measure 4
2002
0000
0000
0000
,  // measure 5
3003
0110
1100
1010
,  // measure 6
0011
2112
0000
0110
,  // measure 7
0000
0110
3003
0110
,  // measure 8
2002
0000
0000
0000
3003
0000
0100
0010
0022
0000
0000
0000
0033
0000
0100
1000
,  // measure 9
2020
0000
0000
0000
3030
0000
0001
0100
0220
0000
0000
0000
0330
0000
1000
0100
,  // measure 10
0022
0000
0000
0000
0033
0000
0010
0100
2002
0000
0000
0000
3003
0000
0100
0010
,  // measure 11
0012
0000
0100
0000
0100
1000
0013
0000
,  // measure 12
2200
0000
0000
0000
3300
0000
0010
0001
0202
0000
0000
0000
0303
0000
0010
1000
,  // measure 13
2002
0000
0000
0000
3003
0000
0010
0100
2200
0000
0000
0000
3300
0000
0100
0010
,  // measure 14
0022
0000
0000
0000
0033
0000
0010
0001
2002
0000
0000
0000
3003
0000
1000
0010
,  // measure 15
0202
0000
0000
0000
0303
0000
0100
0010
2002
0000
0000
0000
3003
0000
0110
0000
,  // measure 16
0101
0001
1000
0100
0001
0100
0010
0001
,  // measure 17
0101
1000
0100
0010
1000
0001
0010
0100
,  // measure 18
1100
1000
0010
0100
0001
1000
0100
0010
,  // measure 19
0001
0100
0001
0100
0001
0010
0100
1000
0100
1000
0100
1000
0010
0100
0001
0100
,  // measure 20
0001
0000
1000
0100
1000
0000
0010
0000
0100
0000
0001
0000
1001
0000
0000
0000
,  // measure 21
0010
0000
0100
0001
0100
0000
0001
0000
1000
0000
0100
0000
0110
0000
0000
0000
,  // measure 22
0001
0000
0100
0010
1000
0000
0001
0000
0010
0000
0100
0000
1100
0000
0000
0000
,  // measure 23
0100
0010
0100
0010
1000
0100
1000
0100
0010
0001
0010
0001
0010
0100
1000
0001
,  // measure 24
2001
0010
3200
1000
0320
0001
2030
0100
,  // measure 25
3002
0010
0203
1000
0320
0001
0230
1000
,  // measure 26
0302
0010
0203
1000
0302
0010
2003
0100
,  // measure 27
3010
0100
0010
0100
0001
0100
0001
1000
0100
0010
0100
0010
0001
1000
0001
1000
,  // measure 28
1200
0000
0010
0000
0302
0000
1000
0000
0023
0000
0130
1000
1100
0000
0000
0000
,  // measure 29
0200
0000
0001
0000
0320
0000
1000
0000
0032
0000
0103
0010
0110
0000
0000
0000
,  // measure 30
2000
0000
0010
0000
3200
0000
0001
0000
0320
0000
1030
0001
1001
0000
0000
0000
,  // measure 31
0100
0010
0100
0010
0100
0010
1000
0100
1000
0100
1000
0001
0100
0001
0010
0001
,  // measure 32
0011
0100
1100
1000
0101
0001
1010
0010
,  // measure 33
1100
1000
0110
0001
1100
0010
1001
0100
,  // measure 34
0011
1000
0110
0001
0101
1000
1010
0001
,  // measure 35
1001
0100
0011
1000
0110
0001
1100
2020
,  // measure 36
0000
3030
0000
0000
1001
0000
0000
0000
0000
0000
0000
0000
0000
0000
0000
0000
,  // measure 37
0100
0010
0100
0010
,  // measure 38
0100
0010
0100
0010
,  // measure 39
0100
0010
0100
0010
,  // measure 40
0100
0010
0100
0010
,  // measure 41
0100
0010
0100
0010
,  // measure 42
0100
0010
0100
0010
,  // measure 43
0100
0010
0100
0010
,  // measure 44
0100
0010
0100
0010
,  // measure 45
1001
0000
1110
0000
,  // measure 46
1001
0000
0111
0000
,  // measure 47
0110
0100
0001
1000
0100
1000
0100
0010
0001
0100
1000
0100
0010
1000
0001
0000
,  // measure 48
0100
0010
0100
1000
0100
0001
0010
0100
1000
0010
0100
0001
1000
0100
0010
0000
,  // measure 49
0001
0100
0001
0001
1000
0100
0010
0001
0100
1000
0100
0010
1000
0001
0010
0000
,  // measure 50
0100
1000
0100
0010
1000
0001
0010
0100
1000
0010
0100
0001
0010
0100
1000
0000
,  // measure 51
0001
0010
0001
0100
0010
1000
0100
0001
0100
0010
0001
1000
0010
1000
0100
0000
,  // measure 52
0010
0001
1000
0010
1000
0100
0001
0100
0010
1000
0010
0001
0100
0010
0001
0000
,  // measure 53
0010
0100
1000
0001
0100
0010
0001
0010
0100
1000
0100
0010
0001
1000
0010
0000
,  // measure 54
0100
1000
0100
0001
0010
0100
1000
0001
0100
0010
0001
0010
1000
0100
0010
0000
,  // measure 55
0001
1000
0100
0001
0100
0010
0001
1000
0010
1000
0100
0010
0001
0100
1000
0000
,  // measure 56
0100
0010
0001
1000
0010
1000
0001
0010
0100
1000
0010
0100
0001
1000
0100
0000
,  // measure 57
0010
1000
0010
0001
0100
1000
0100
0010
1000
0001
0010
0100
1000
0010
0001
0000
,  // measure 58
0010
1000
0100
0001
0100
0010
0001
0100
0010
1000
0100
0010
0001
0100
1000
0000
,  // measure 59
0100
0010
0001
0010
0100
0001
1000
0100
0010
0001
0100
1000
0100
0010
1000
0000
,  // measure 60
0001
0100
1000
0100
0010
0010
1000
0010
0100
0001
0010
0100
1000
0010
0100
0000
,  // measure 61
0001
1000
0100
0001
0100
0010
0001
0100
0010
1000
0100
0001
0100
0010
0001
0000
,  // measure 62
0010
0100
1000
0001
0100
0010
0001
0010
1000
0100
0010
0001
0100
0010
1000
0000
,  // measure 63
1100
0000
1110
0000
,  // measure 64
0011
0000
0111
0000
,  // measure 65
2001
3200
0320
2030
3002
0023
0230
0302
,  // measure 66
2003
3200
0320
0032
0203
2300
3200
0320
,  // measure 67
2030
3002
0023
0230
2300
3020
0230
0302
,  // measure 68
1003
0010
1000
0010
1000
0100
0010
0001
0010
0001
0100
0010
0100
0010
1000
0100
,  // measure 69
2100
3020
0032
0203
0320
2030
3200
0302
,  // measure 70
0023
0230
2300
3002
0203
0320
0032
0203
,  // measure 71
2300
3020
0230
0302
0023
0230
2300
3002
,  // measure 72
1003
0010
1000
0100
0010
0001
0010
0001
0010
0100
1000
0100
1000
0010
0100
0001
,  // measure 73
0101
0000
1000
0000
0011
0000
0100
0000
1100
0000
0001
0000
0010
0000
0100
1000
,  // measure 74
1100
0001
0110
1000
1001
0010
1001
0100
,  // measure 75
0011
0000
0001
0000
1100
0000
0010
0000
1001
0000
0010
0000
1100
0000
0001
1000
,  // measure 76
1001
0100
0110
0001
1100
0001
0110
2200
,  // measure 77
0000
3300
0000
0000
1001
0000
0000
0000
0000
0000
0000
0000
0000
0000
0000
0000
,  // measure 78
1000
0001
1000
0001
,  // measure 79
1000
0001
1000
0001
,  // measure 80
1000
0001
1000
0001
,  // measure 81
1000
0001
1000
0001
,  // measure 82
1000
0001
1000
0001
,  // measure 83
1000
0001
1000
0001
,  // measure 84
1000
0001
1000
0001
,  // measure 85
1000
0001
1000
0001
,  // measure 86
0101
0000
0111
0000
,  // measure 87
1010
0000
1110
0000
,  // measure 88
1001
0001
0100
0000
0010
1000
0100
0000
0010
0001
1000
0000
0001
0010
0100
0000
1000
0010
0100
0000
0001
0100
1000
0000
1000
0100
0001
0000
0010
0100
1000
0000
,  // measure 89
0010
0100
0001
0000
1000
0100
0010
0000
0001
1000
0010
0000
0100
1000
0100
0000
0001
0010
0100
0000
1000
0010
1000
0000
0001
0100
0010
0000
1000
0100
0010
0000
,  // measure 90
0011
0001
0100
0010
1000
0100
1000
0100
0010
0001
0010
0001
0100
0010
0100
1000
0100
0001
0010
0100
1000
0010
0100
0010
0001
0010
0100
1000
0010
0100
0001
1000
,  // measure 91
0100
1000
0100
0010
0001
0010
0001
0010
0100
1000
0010
1000
0010
0100
0001
1000
1001
0000
0000
0000
0000
0000
0000
0000
1000
0001
1000
0001
1000
0001
1000
0001
,  // measure 92
1001
0100
0010
0001
0100
1000
0100
1000
0100
0001
0010
0100
1000
0001
0010
0100
,  // measure 93
1000
0010
0100
0001
1000
0010
0100
0001
1000
0100
0010
0001
1000
0010
0100
0000
,  // measure 94
0001
0010
0001
0010
0100
1000
0100
0010
0001
1000
0010
1000
0100
0010
0001
1000
,  // measure 95
0100
0010
0001
0100
0010
1000
0100
1000
0001
0010
0100
1000
0010
0100
0001
0000
,  // measure 96
1000
0100
0010
0001
0010
0100
1000
0001
0100
0001
1000
0100
1000
0100
0010
0001
,  // measure 97
0010
0001
0100
0010
0100
1000
0100
0001
0010
0100
1000
0010
0100
0001
1000
0000
,  // measure 98
0100
0010
0001
0010
0001
0001
0100
0010
0100
1000
0100
0001
0010
0100
1000
0001
,  // measure 99
0010
0100
1000
0010
0100
0001
1000
0100
0010
0001
1000
0100
0010
0001
1000
0000
,  // measure 100
1000
0100
0010
0010
0001
0000
0101
0000
0010
1000
0100
0010
0001
0000
1001
0000
,  // measure 101
0100
0010
0001
0010
0100
0000
1010
0000
1000
0100
0010
0001
0001
0000
0101
0000
,  // measure 102
0010
0001
1000
0010
0100
0000
0011
0000
0001
0100
1000
0100
0100
0000
0110
0000
,  // measure 103
0001
1000
0100
0010
0010
0000
0011
0000
1000
0001
0010
0100
0100
0000
0101
0000
,  // measure 104
0010
1000
0001
0010
0100
0000
0110
0000
1000
0001
0010
0100
1000
0000
1001
0000
,  // measure 105
0100
0010
0100
1000
0100
0000
1001
0000
0010
0100
1000
0010
0100
0000
0101
0000
,  // measure 106
1000
0100
0001
0100
1000
0000
0110
0000
0001
0010
1000
0010
0001
0000
0110
0000
,  // measure 107
1000
0100
0010
0001
1000
0000
1001
0000
0001
0010
0100
1000
0010
0000
1001
0000
,  // measure 108
1011
1110
0000
0000
0000
1110
0000
0111
,  // measure 109
0000
0000
0000
0000
0000
0000
0000
0000
0000
0000
0000
0000
0000
0000
1110
1101
,  // measure 110
0000
0000
0000
1110
0000
0111
0000
0000
0000
0000
0000
0000
0000
2222
0000
0000
,  // measure 111
0000
0000
0000
0000
0000
0330
0000
0000
,  // measure 112
0000
0000
0000
0000
,  // measure 113
0000
0000
0000
0000
0000
0000
0000
0000
0000
0000
0000
0000
0000
0000
0000
3003
,  // measure 114
0000
0100
0000
0000
0000
0010
0000
0000
0000
0100
0000
0000
0000
0010
0000
0000
,  // measure 115
0000
0100
0000
0000
0000
0010
0000
0000
0000
0100
0000
0000
0000
0010
0000
0000
,  // measure 116
0000
0100
0000
0000
0000
0010
0000
0000
0000
0100
0000
0000
0000
0010
0000
0000
,  // measure 117
0000
0100
0000
0000
0000
0010
0000
0000
0000
0100
0000
0000
0000
0010
0000
0000
,  // measure 118
0000
1000
0000
0000
0000
0001
0000
0000
0000
1000
0000
0000
0000
0001
0000
0000
,  // measure 119
0000
1000
0000
0000
0000
0001
0000
0000
0000
1000
0000
0000
0000
0001
0000
0000
,  // measure 120
0000
1000
0000
0000
0000
0001
0000
0000
0000
1000
0000
0000
0000
0001
0000
0000
,  // measure 121
0000
1000
0000
0000
0000
0001
0000
0000
0000
1000
0000
0000
0000
0001
0000
0000
,  // measure 122
0000
0010
0000
0000
0000
0100
0000
0000
0000
0010
0000
0000
0000
0100
0000
0000
,  // measure 123
0000
0010
0000
0000
0000
0100
0000
0000
0000
0010
0000
0000
0000
2222
0000
3333
;

//---------------dance-single - ----------------
#NOTES:
     dance-single:
     :
     Easy:
     12:
     1.000,1.000,0.717,0.439,1.000,1059.000,116.000,71.000,0.000,6.000:  // measure 1
1000
0100
0010
2002
0000
0000
0000
0000
,  // measure 2
0000
0000
0000
3003
0000
1001
0000
0011
,  // measure 3
0000
0110
0000
1100
0000
1000
0100
0010
,  // measure 4
2002
0000
0000
0000
,  // measure 5
3003
0110
1100
1001
,  // measure 6
0110
2112
0000
0110
,  // measure 7
0000
0110
3003
0110
,  // measure 8
2001
0000
0000
0000
0000
0000
3100
0010
0002
0000
0000
0000
0000
0000
0103
1000
,  // measure 9
0020
0000
0000
0000
0000
0000
0031
0100
0020
0000
0000
0000
0000
0000
1030
0100
,  // measure 10
0002
0000
0000
0000
0000
0000
0013
0100
2000
0000
0000
0000
0000
0000
3100
0010
,  // measure 11
0002
0000
0100
0100
0100
0100
0103
0000
,  // measure 12
2100
0000
0000
0000
0000
0000
3010
0001
0200
0000
0000
0000
0000
0000
0310
1000
,  // measure 13
0002
0000
0000
0000
0000
0000
0013
0100
2000
0000
0000
0000
0000
0000
3100
0010
,  // measure 14
0002
0000
0000
0000
0000
0000
0013
0001
0200
0000
0000
0000
0000
0000
1300
0010
,  // measure 15
0002
0000
0000
0000
0000
0000
0103
0010
2000
0000
0000
0000
3100
0000
0010
0000
,  // measure 16
1001
1000
0010
0100
1000
0100
0001
0010
,  // measure 17
0100
1000
0010
0100
0001
1000
1000
0100
,  // measure 18
0010
0001
0100
1000
0100
0010
1000
0001
,  // measure 19
0100
0010
0100
0010
0100
0010
0100
0010
1000
0001
1000
0001
1000
0001
1000
0001
,  // measure 20
1000
0100
0010
0001
1000
0010
0110
0000
,  // measure 21
0001
0100
1000
0010
0001
0100
0110
0000
,  // measure 22
0001
0010
0100
0001
1000
0100
0110
0000
,  // measure 23
1000
0100
1000
0100
1000
0100
1000
0100
0010
0001
0010
0001
0010
0001
0010
0001
,  // measure 24
0020
0100
0031
1000
0010
0100
0002
1000
,  // measure 25
0203
0010
0301
1000
0100
0010
0002
1000
,  // measure 26
0203
0010
0301
1000
0100
0010
0002
1000
,  // measure 27
0013
0100
0010
0100
0010
0100
0010
0100
1000
0001
1000
0001
1000
0001
1000
0001
,  // measure 28
1100
0100
0011
0001
0110
1000
1100
0000
,  // measure 29
0101
1000
0110
0001
1010
0100
1001
0000
,  // measure 30
0110
1000
0101
0010
1001
0100
0110
0000
,  // measure 31
0010
0001
0010
0001
0010
0001
0010
0001
1000
0100
1000
0100
1000
0100
1000
0100
,  // measure 32
0010
1001
1100
1010
0100
0011
0110
1100
,  // measure 33
0001
1100
0110
0011
0100
0110
1001
1100
,  // measure 34
0010
0011
1001
1100
0010
0101
1010
1100
,  // measure 35
0001
0110
0011
1001
0100
0011
1100
2020
,  // measure 36
0000
3030
0000
0000
1001
0000
0000
0000
0000
0000
0000
0000
0000
0000
0000
0000
,  // measure 37
0100
0010
0100
0010
,  // measure 38
0100
0010
0100
0010
,  // measure 39
0100
0010
0100
0010
,  // measure 40
0100
0010
0100
0010
,  // measure 41
0100
0010
0100
0010
,  // measure 42
0100
0010
0100
0010
,  // measure 43
0100
0010
0100
0010
,  // measure 44
0100
0010
0100
0010
,  // measure 45
1001
0000
0110
0000
,  // measure 46
1001
0000
0110
0000
,  // measure 47
1000
0100
1000
0010
0100
0001
0100
0001
0010
0100
1000
0100
1000
0010
0100
0000
,  // measure 48
0001
1000
0001
1000
0100
0010
0001
0010
0001
0010
0100
1000
0010
0100
0001
0000
,  // measure 49
1000
0100
1000
0010
0100
0010
0100
0001
0010
0100
1000
0100
0010
0001
1000
0000
,  // measure 50
0001
0010
0100
0010
0100
1000
0010
1000
0010
0100
0001
0100
0010
1000
0100
0000
,  // measure 51
1000
0001
1000
0100
0010
0001
0010
0001
0010
0100
1000
0001
1000
0100
1000
0000
,  // measure 52
0010
0100
0001
0100
0001
1000
0100
1000
0010
0100
0010
0100
0001
0010
0100
0000
,  // measure 53
1000
0001
1000
0100
0010
0001
0001
0010
0100
1000
0010
0100
0001
1000
0100
0000
,  // measure 54
1000
0100
1000
0100
0001
0100
0001
0100
0010
0001
0010
0001
1000
0010
1000
0000
,  // measure 55
0001
0100
0010
1000
0001
0100
0010
1000
0001
0100
0010
1000
0100
0010
0001
0000
,  // measure 56
1000
0010
0100
0001
1000
0010
0100
0001
1000
0010
0100
0001
0010
0100
1000
0000
,  // measure 57
0001
0010
0001
0010
0100
1000
0100
1000
0010
0001
0010
0001
0100
0010
0100
0000
,  // measure 58
1000
0010
1000
0100
0010
0001
0010
0100
1000
0100
1000
0001
0100
0001
0010
0000
,  // measure 59
0100
1000
0100
0010
0001
1000
0010
1000
0100
1000
0001
0100
0001
0010
0001
0000
,  // measure 60
0100
0010
0100
0010
1000
0100
1000
0001
0100
0001
0010
0100
0010
0100
1000
0000
,  // measure 61
0001
0100
0001
0010
0100
1000
0100
0010
0001
1000
0010
1000
0010
0100
1000
0000
,  // measure 62
0001
0100
0001
0010
0100
1000
0010
0100
0001
1000
0100
1000
0100
0010
0001
0000
,  // measure 63
1100
0000
0110
0000
,  // measure 64
0011
0000
0110
0000
,  // measure 65
2001
0100
0010
3001
0200
0010
1000
0301
,  // measure 66
2001
0010
0100
3001
0200
0010
1000
0301
,  // measure 67
0120
0001
1000
0130
0002
0010
0100
1003
,  // measure 68
0010
0100
0010
0100
0010
0100
0010
0100
0001
1000
0001
1000
0001
1000
0001
1000
,  // measure 69
1200
0010
0001
1300
0020
0100
0001
1030
,  // measure 70
0201
0010
1000
0301
0021
0100
1000
0031
,  // measure 71
0210
1000
0001
0310
0012
0100
1000
0013
,  // measure 72
0100
0001
0100
0001
0100
0001
0100
0001
1000
0010
1000
0010
1000
0010
1000
0010
,  // measure 73
0100
0000
1000
0000
1001
0000
0100
0000
1100
0000
0010
0000
0001
0000
0100
1000
,  // measure 74
1100
0010
1001
0100
1001
0010
1001
0100
,  // measure 75
0011
0000
0010
0000
1100
0000
0010
0000
0101
0000
0010
0000
1100
0000
0001
1000
,  // measure 76
1001
0100
0110
0001
1001
0100
0110
0022
,  // measure 77
0000
0033
0000
0000
1001
0000
0000
0000
0000
0000
0000
0000
0000
0000
0000
0000
,  // measure 78
1000
0001
1000
0001
,  // measure 79
1000
0001
1000
0001
,  // measure 80
1000
0001
1000
0001
,  // measure 81
1000
0001
1000
0001
,  // measure 82
1000
0001
1000
0001
,  // measure 83
1000
0001
1000
0001
,  // measure 84
1000
0001
1000
0001
,  // measure 85
1000
0001
1000
0001
,  // measure 86
0101
0000
0111
0000
,  // measure 87
1010
0000
1110
0000
,  // measure 88
2200
3300
2002
3003
0022
0033
0220
0330
2200
0000
3300
2002
0000
0000
3003
0000
,  // measure 89
0022
0000
0033
0220
0000
0330
2200
3300
2002
0000
3003
0202
0000
0000
0303
0000
,  // measure 90
1000
0100
1000
0100
1000
0100
1000
0100
1000
0100
1000
0100
1000
0100
1000
0100
0010
0001
0010
0001
0010
0001
0010
0001
0010
0001
0010
0001
0010
0001
0010
0001
,  // measure 91
0100
0010
0100
0010
0100
0010
0100
0010
0100
0010
0100
0010
0100
0010
0100
0010
1001
0000
0000
0000
0000
0000
0000
0000
1000
0001
1000
0001
1000
0001
1000
0001
,  // measure 92
1001
0100
1000
0100
0010
0001
0010
0001
0100
0010
0100
1000
0100
1000
0100
0001
,  // measure 93
0100
0001
0010
0100
0010
0100
1000
0010
1000
0100
1000
0100
1000
0100
0010
0001
,  // measure 94
0010
0001
0100
0010
0100
0010
0100
1000
0100
1000
0100
0001
0100
0001
0010
0100
,  // measure 95
0010
0100
0010
0001
1000
0001
0100
0010
1000
0100
1000
0001
0100
0001
0100
1000
,  // measure 96
0100
1000
0100
0001
0010
0001
0010
0100
1000
0100
1000
0010
0100
0001
0100
0001
,  // measure 97
0010
0100
1000
0100
0010
0001
0100
0010
0100
1000
0100
1000
0100
0001
0010
0100
,  // measure 98
1000
0100
0010
0001
1000
0100
0010
0001
0100
1000
0100
0001
0100
1000
0100
0001
,  // measure 99
0100
1000
0100
0001
0010
1000
0010
0001
0010
1000
0010
0001
0100
0010
0100
1000
,  // measure 100
0100
0010
1000
0100
1000
0001
1000
0100
1000
0001
1000
0100
0001
0100
0010
0001
,  // measure 101
1000
0001
0010
0100
1000
0100
0010
0001
0010
0001
0100
0010
0100
1000
0100
0010
,  // measure 102
1000
0001
0010
0001
0010
0100
1000
0001
0100
0001
0100
0010
0001
0010
0001
0010
,  // measure 103
1000
0010
1000
0100
0001
0100
0001
0010
0100
1000
0010
0100
1000
0001
1000
0100
,  // measure 104
0010
0001
1000
0100
0010
0001
0100
0010
1000
0001
0100
0010
1000
0001
0010
0100
,  // measure 105
1000
0001
0010
0100
1000
0100
1000
0010
0100
0001
0100
0001
0100
0001
0100
0001
,  // measure 106
1000
0100
1000
0100
1000
0100
1000
0100
0010
0001
0010
0001
0100
0010
0100
0010
,  // measure 107
1000
0100
1000
0100
0010
0001
0010
0001
0100
0010
0100
1000
0001
0010
0100
1000
,  // measure 108
1001
0110
0000
0000
0000
1100
0000
0011
,  // measure 109
0000
0000
0000
0000
0000
0000
0000
0000
0000
0000
0000
0000
0000
0000
0110
1001
,  // measure 110
0000
0000
0000
1100
0000
0011
0000
0000
0000
0000
0000
0000
0000
2002
0000
0000
,  // measure 111
0000
0000
0000
0000
,  // measure 112
0000
0000
0000
0000
,  // measure 113
0000
0000
0000
0000
0000
0000
0000
0000
0000
0000
0000
0000
0000
0000
0000
3003
,  // measure 114
0000
0100
0000
0000
0000
0010
0000
0000
0000
0100
0000
0000
0000
0010
0000
0000
,  // measure 115
0000
0100
0000
0000
0000
0010
0000
0000
0000
0100
0000
0000
0000
0010
0000
0000
,  // measure 116
0000
0100
0000
0000
0000
0010
0000
0000
0000
0100
0000
0000
0000
0010
0000
0000
,  // measure 117
0000
0100
0000
0000
0000
0010
0000
0000
0000
0100
0000
0000
0000
0010
0000
0000
,  // measure 118
0000
1000
0000
0000
0000
0001
0000
0000
0000
1000
0000
0000
0000
0001
0000
0000
,  // measure 119
0000
1000
0000
0000
0000
0001
0000
0000
0000
1000
0000
0000
0000
0001
0000
0000
,  // measure 120
0000
1000
0000
0000
0000
0001
0000
0000
0000
1000
0000
0000
0000
0001
0000
0000
,  // measure 121
0000
1000
0000
0000
0000
0001
0000
0000
0000
1000
0000
0000
0000
0001
0000
0000
,  // measure 122
0000
0010
0000
0000
0000
0100
0000
0000
0000
0010
0000
0000
0000
0100
0000
0000
,  // measure 123
0000
0010
0000
0000
0000
0100
0000
0000
0000
0010
0000
0000
0000
2222
0000
3333
;
